#TITLE:Guardian Angel;
#SUBTITLE:;
#ARTIST:X' Edits / Akire-X;
#TITLETRANSLIT:;
#SUBTITLETRANSLIT:;
#ARTISTTRANSLIT:;
#CREDIT:Akire-X;
#BANNER:BannerGA.png;
#BACKGROUND:TitleGA.png;
#LYRICSPATH:;
#CDTITLE:CDTitle.png;
#MUSIC:Edits - Guardian Angel.mp3;
#OFFSET:0.000;
#SAMPLESTART:41.970;
#SAMPLELENGTH:12.000;
#SELECTABLE:YES;
#BPMS:0.000=142.890;
#STOPS:;
#BGCHANGES:;
// cache tags:
#FIRSTBEAT:3.000;
#LASTBEAT:189.000;
#SONGFILENAME:Songs/Akire-X/[SMBX] Edits - Guardian Angel/Edits - Guardian Angel.sm;
#HASMUSIC:1;
#HASBANNER:1;
#MUSICLENGTH:85.768;
// end cache tags

//---------------dance-single - ----------------
#NOTES:
     dance-single:
     :
     Hard:
     9:
     0.598,0.689,0.198,0.105,0.606,333.000,17.000,9.000,0.000,0.000:
0000
0000
0000
0000
0000
0000
1000
0010
,
0100
0000
0001
0100
0000
0100
0010
0000
,
0010
1000
0000
1000
0001
1000
0000
1000
,
0001
0000
0000
0000
0000
0000
0001
0000
0000
0100
0000
0000
0000
0000
0000
0100
0000
0000
0010
0000
1000
0000
0010
0000
,
1000
0010
0000
1000
0001
0100
0001
0100
0000
0000
0000
0000
,
0010
1000
0010
1000
0000
0000
0000
0000
0000
0000
1000
0000
,
0001
0000
0000
0000
0000
0000
0000
0000
1000
0000
0000
0000
0000
0000
0000
0000
0001
0000
0000
0000
0000
0000
0000
0000
0000
0000
0000
0000
0000
0000
0000
0000
0000
0000
0000
0000
1000
0000
0000
0001
0000
0000
0100
0000
0000
0010
0000
0000
,
1000
0001
0000
0000
0100
0000
0001
0000
0000
0100
0000
0000
0010
0000
1000
0010
,
1000
0010
1000
0010
1000
0000
0000
0001
0000
0000
0100
0000
0001
0000
1000
0000
,
0010
0000
0000
1000
0000
0000
0001
0000
0000
0100
0000
0000
0010
1000
0010
1000
,
0010
0000
0000
0100
0000
0000
0001
0000
0000
1000
0000
0000
0010
0000
0000
1000
,
0001
0000
1000
0000
0001
1000
0000
0000
1001
0000
0000
0010
1000
0000
0010
0000
,
1000
0010
0000
0000
1010
0000
0000
1000
0001
0000
0100
0000
0001
0100
0000
0000
,
0101
0000
0000
0001
0010
0000
0001
0000
0010
0001
0000
0000
0011
0000
0000
0001
,
1000
0000
0100
0000
1000
0100
0000
0000
1100
0000
0000
0000
2200
0000
0000
0000
,
3300
0000
0000
0000
1000
0100
1000
0001
0100
0001
1000
0100
1000
0000
0000
0000
,
0000
0000
0000
0000
0010
1000
0010
1000
0010
1000
0010
1000
0020
0000
0000
0000
,
1000
0100
0001
0100
,
1000
0100
0001
0130
,
0000
0000
0000
0000
0001
0100
0001
0100
0010
1000
0010
1000
0010
1000
0010
1000
,
0010
0000
0000
0000
1000
0000
0001
0000
0100
0000
0000
0010
0000
0000
1000
0000
,
0000
0010
0000
0000
1000
0000
0000
0000
1010
0000
0000
0000
0010
0000
1000
0000
,
0000
1000
0001
0100
0000
0100
0001
1000
,
0000
1000
0010
0000
0010
0100
0010
0100
,
0000
0100
0001
0000
0011
0000
1100
0000
,
0011
0000
0000
0000
0001
0000
0000
0100
0000
0000
0010
0000
0000
1000
0000
0000
,
1000
0000
0010
0000
0100
0000
0000
0001
0000
0000
0100
0000
0000
0010
0000
0000
,
0100
0000
0010
0000
1000
0000
0000
0001
0000
0000
0100
0000
0000
0010
0000
0000
,
0100
0000
0001
0000
1000
0000
0000
0010
0000
0000
1000
0000
0000
0001
0000
0000
,
1000
0000
0000
0000
0010
0000
0000
1000
0000
0000
1010
0000
0000
2000
0000
0000
,
3001
0000
0000
0000
0101
0000
0000
0110
0000
0000
1010
0000
0000
2000
0000
0000
,
3001
0000
0000
0100
0000
0000
0001
0000
0000
0101
0000
0000
0002
0000
0000
0103
,
0000
0000
0010
0000
0000
1000
0000
0000
0001
0000
0000
1001
0000
0000
0200
0000
,
0000
0300
0000
0000
0010
0000
1000
0000
0010
0000
1000
0000
0001
0000
0100
0000
,
0001
0100
0010
0100
0010
1000
0001
1000
,
0001
0100
0010
1000
0001
0100
0010
1000
,
0001
0100
0001
1000
0001
1000
0100
1000
,
0001
0000
1000
0000
0001
0100
0001
0100
0000
0001
1000
0000
1000
0010
0000
0010
,
1000
0000
1000
0001
1000
0001
1000
0000
0010
1000
0010
1000
0010
1000
0010
1000
,
0010
0000
1000
0000
0001
1000
0010
1000
0000
0000
1000
0000
0001
0000
0100
0010
,
0100
0010
0100
0000
0010
1000
0010
1000
0010
1000
0000
0001
0100
0000
0001
0100
,
0000
0001
0100
0000
0101
0000
0000
0000
0001
0000
0100
0000
0001
0000
0000
1000
,
0000
0000
0010
0000
1000
0010
1000
0000
0000
0000
1000
0000
0010
0000
0100
0000
,
0001
0000
0100
0000
0010
0100
0010
0000
0000
1000
0000
0000
0001
0100
0001
0000
,
1000
0010
1000
0010
1000
0010
1000
0010
1000
0010
1000
0010
1000
0001
1000
0001
,
1000
0001
1000
0001
1000
0000
0000
0000
0200
0000
0000
0000
0000
0000
0000
0000
,
0020
0000
0000
0000
,
0000
0330
0000
0000
;

//---------------pump-single - ----------------
#NOTES:
     pump-single:
     :
     Hard:
     9:
     0.598,0.689,0.198,0.105,0.606,333.000,17.000,9.000,0.000,0.000:
00000
00000
00000
00000
00000
00000
10000
00100
,
01000
00000
00010
01000
00000
01000
00100
00000
,
00100
10000
00000
10000
00010
10000
00000
10000
,
00010
00000
00000
00000
00000
00000
00010
00000
00000
01000
00000
00000
00000
00000
00000
01000
00000
00000
00100
00000
10000
00000
00100
00000
,
01000
00010
00000
01000
00001
00100
00001
00100
00000
00000
00000
00000
,
00010
01000
00010
01000
00000
00000
00000
00000
00000
00000
01000
00000
,
00001
00000
00000
00000
00000
00000
00000
00000
01000
00000
00000
00000
00000
00000
00000
00000
00001
00000
00000
00000
00000
00000
00000
00000
00000
00000
00000
00000
00000
00000
00000
00000
00000
00000
00000
00000
01000
00000
00000
00001
00000
00000
00100
00000
00000
00010
00000
00000
,
01000
00001
00000
00000
00100
00000
00001
00000
00000
00100
00000
00000
00010
00000
01000
00010
,
10000
00100
10000
00100
10000
00000
00000
00010
00000
00000
01000
00000
00010
00000
10000
00000
,
00100
00000
00000
10000
00000
00000
00010
00000
00000
01000
00000
00000
00100
10000
00100
10000
,
00100
00000
00000
01000
00000
00000
00010
00000
00000
10000
00000
00000
00100
00000
00000
10000
,
00010
00000
10000
00000
00010
10000
00000
00000
10010
00000
00000
00100
10000
00000
00100
00000
,
01000
00010
00000
00000
01010
00000
00000
01000
00001
00000
00100
00000
00001
00100
00000
00000
,
00101
00000
00000
00001
00010
00000
00001
00000
00010
00001
00000
00000
00011
00000
00000
00001
,
01000
00000
00100
00000
01000
00100
00000
00000
01100
00000
00000
00000
02200
00000
00000
00000
,
03300
00000
00000
00000
01000
00100
01000
00001
00100
00001
01000
00100
01000
00000
00000
00000
,
00000
00000
00000
00000
00100
10000
00100
10000
00100
10000
00100
10000
00200
00000
00000
00000
,
10000
01000
00010
01000
,
10000
01000
00010
01300
,
00000
00000
00000
00000
00010
01000
00010
01000
00100
10000
00100
10000
00100
10000
00100
10000
,
00010
00000
00000
00000
01000
00000
00001
00000
00100
00000
00000
00010
00000
00000
01000
00000
,
00000
00010
00000
00000
01000
00000
00000
00000
01010
00000
00000
00000
00010
00000
01000
00000
,
00000
01000
00001
00100
00000
00100
00001
01000
,
00000
01000
00010
00000
00010
00100
00010
00100
,
00000
01000
00010
00000
00110
00000
11000
00000
,
00110
00000
00000
00000
00010
00000
00000
01000
00000
00000
00100
00000
00000
10000
00000
00000
,
10000
00000
00100
00000
01000
00000
00000
00010
00000
00000
01000
00000
00000
00100
00000
00000
,
01000
00000
00100
00000
10000
00000
00000
00010
00000
00000
01000
00000
00000
00100
00000
00000
,
00100
00000
00001
00000
01000
00000
00000
00010
00000
00000
01000
00000
00000
00001
00000
00000
,
01000
00000
00000
00000
00010
00000
00000
01000
00000
00000
01010
00000
00000
02000
00000
00000
,
03001
00000
00000
00000
00101
00000
00000
00110
00000
00000
01010
00000
00000
02000
00000
00000
,
03001
00000
00000
00100
00000
00000
00001
00000
00000
00101
00000
00000
00002
00000
00000
00103
,
00000
00000
00100
00000
00000
10000
00000
00000
00010
00000
00000
10010
00000
00000
02000
00000
,
00000
03000
00000
00000
00100
00000
10000
00000
00100
00000
10000
00000
00010
00000
01000
00000
,
00010
01000
00100
01000
00100
10000
00010
10000
,
00010
01000
00100
10000
00010
01000
00100
10000
,
00001
00100
00001
01000
00001
01000
00100
01000
,
00001
00000
01000
00000
00001
00100
00001
00100
00000
00001
01000
00000
01000
00010
00000
00010
,
01000
00000
01000
00001
01000
00001
01000
00000
00010
01000
00010
01000
00010
01000
00010
01000
,
00010
00000
01000
00000
00001
01000
00010
01000
00000
00000
01000
00000
00001
00000
00100
00010
,
01000
00100
01000
00000
00100
10000
00100
10000
00100
10000
00000
00010
01000
00000
00010
01000
,
00000
00010
01000
00000
01010
00000
00000
00000
00010
00000
01000
00000
00010
00000
00000
10000
,
00000
00000
00100
00000
10000
00100
10000
00000
00000
00000
10000
00000
00100
00000
01000
00000
,
00010
00000
01000
00000
00100
01000
00100
00000
00000
10000
00000
00000
00010
01000
00010
00000
,
01000
00010
01000
00010
01000
00010
01000
00010
01000
00010
01000
00010
01000
00001
01000
00001
,
01000
00001
01000
00001
01000
00000
00000
00000
00200
00000
00000
00000
00000
00000
00000
00000
,
00020
00000
00000
00000
,
00000
00330
00000
00000
;
